Mumbai 125 KM (2014) - 720p - WebHD-Rip - Hindi - x264 - AC3 - Mafiaking - Team TellyTNT

Torrent Base Info

Title:
Mumbai 125 KM (2014) - 720p - WebHD-Rip - Hindi - x264 - AC3 - Mafiaking - Team TellyTNT
Total size:
791 MB
Create Time:
2015-11-26 16:00:06
Total Files:
3

Guess You Like

Files in this torrent

  • Mumbai 125 KM (2014) - 720p - WebHD-Rip - Hindi - x264 - AC3 - Mafiaking - Team TellyTNT.torrent
  • Mumbai 125 KM (2014) - 720p - WebHD-Rip - Hindi - x264 - AC3 - Mafiaking - Team TellyTNT
    • Mumbai 125 KM (2014) - 720p - WebHD-Rip - Hindi - x264 - AC3 - Mafiaking - Team TellyTNT.mkv (785 MB)
    • SaMple-Mumbai 125 KM (2014) - 720p - WebHD-Rip - Hindi - x264 - AC3 - Mafiaking - Team TellyTNT.mkv (6.46 MB)
    • Torrent Downloaded From ExtraTorrent.cc.txt (352 B)

Torrent Recommendation

3.08 GB
2016-07-23 03:01:56
2.18 GB
2015-04-21 14:48:37
5.44 GB
2015-03-15 12:09:02
840 MB
2014-12-25 04:54:43
2.31 GB
2015-07-29 03:38:20
2.03 GB
2015-10-28 04:07:08
1.01 GB
2014-12-21 10:50:18
1.14 GB
2014-07-13 02:28:57
578 MB
2016-11-15 14:47:55
2.98 GB
2016-03-24 18:30:30
3.02 GB
2016-08-25 17:43:50
2.3 GB
2016-02-11 05:03:47
1.01 GB
2016-06-06 06:33:13
1.09 GB
2014-10-23 12:18:07
2.43 GB
2014-05-16 04:10:28
4.05 GB
2014-09-22 19:14:30
1.12 GB
2014-11-22 13:53:04
3.52 GB
2017-04-06 01:25:04
1.44 GB
2015-11-08 12:55:52

Torrent Description

Category
Movies
Type
h.264/x264
Language
Hindi
Total size
791.56 MB
Uploaded By
Mafiaking
Downloads
4994
Last checked
9 months ago
Date uploaded
10 months ago
Seeders
152
Leechers
284









Quote:




Ratings: 5.3/10

GENRE: Horror


General
Unique ID : 219802070588085335006572542407605633423 (0xA55C56C5FA24415E801AAF4A5CE6418F)
Complete name : Mumbai 125 KM (2014) - 720p - WebHD-Rip - Hindi - x264 - AC3 - Mafiaking - Team TellyTNT.mkv
Format : Matroska
Format version : Version 4 / Version 2
File size : 785 MiB
Duration : 1h 37mn
Overall bit rate : 1 131 Kbps
Movie name : Mumbai 125 KM (2014) - 720p - WebHD-Rip - Hindi - x264 - AC3 - Mafiaking - Team TellyTNT
Encoded date : UTC 2014-12-10 13:03:16
Writing application : mkvmerge v7.0.0 ('Where We Going') 64bit built on Jun 9 2014 15:16:27
Writing library : libebml v1.3.0 + libmatroska v1.4.1


Video
ID : 1
Format : AVC
Format/Info : Advanced Video Codec
Format profile : [email protected]
Format settings, CABAC : Yes
Format settings, ReFrames : 4 frames
Codec ID : V_MPEG4/ISO/AVC
Duration : 1h 37mn
Bit rate : 1 001 Kbps
Width : 1 280 pixels
Height : 536 pixels
Display aspect ratio : 2.40:1
Frame rate mode : Constant
Frame rate : 25.000 fps
Color space : YUV
Chroma subsampling : 4:2:0
Bit depth : 8 bits
Scan type : Progressive
Bits/(Pixel*Frame) : 0.058
Stream size : 681 MiB (87%)
Title : Mafiaking
Language : Hindi
Default : Yes
Forced : No


Audio
ID : 2
Format : AC-3
Format/Info : Audio Coding 3
Mode extension : CM (complete main)
Format settings, Endianness : Big
Codec ID : A_AC3
Duration : 1h 37mn
Bit rate mode : Constant
Bit rate : 128 Kbps
Channel(s) : 2 channels
Channel positions : Front: L R
Sampling rate : 44.1 KHz
Bit depth : 16 bits
Compression mode : Lossy
Stream size : 88.9 MiB (11%)
Title : Mafiaking
Language : Hindi
Default : Yes
Forced : No


SAMPLE WITH IN TORRENT


 





































 

Torrent Description

Info hash
E03573178B72220C32D9EA3900C3D927F078118B
Category
Categories > Movies torrents > Bollywood torrents
Seeds
39
Leechers
38
Health
Torrent language
Hindi
Total Size
791.56 MB
Torrent added
2014-12-10 13:40:33



[font=\"Times New Roman\"]CLICK HERE TO CHECK MY ALL OTHER UPLOADS


Mumbai 125 KM (2014) - 720p - WebHD-Rip - Hindi - x264 - AC3 - Mafiaking - Team TellyTNT



[font=\"Times New Roman\"]-=Extreme Seeded=-[/font]


hA3jMVx.png


mumbai-125-km-3d_13599770969.jpg


15981250a2a3770f9f004bcdf00afac92833ebdb.png

Quote:


[font=\"Times New Roman\"]
CLICK LOGO FOR


26jymSt.jpg


Ratings: 5.3/10

GENRE: Horror


General
Unique ID : 219802070588085335006572542407605633423 (0xA55C56C5FA24415E801AAF4A5CE6418F)
Complete name : Mumbai 125 KM (2014) - 720p - WebHD-Rip - Hindi - x264 - AC3 - Mafiaking - Team TellyTNT.mkv
Format : Matroska
Format version : Version 4 / Version 2
File size : 785 MiB
Duration : 1h 37mn
Overall bit rate : 1 131 Kbps
Movie name : Mumbai 125 KM (2014) - 720p - WebHD-Rip - Hindi - x264 - AC3 - Mafiaking - Team TellyTNT
Encoded date : UTC 2014-12-10 13:03:16
Writing application : mkvmerge v7.0.0 (\'Where We Going\') 64bit built on Jun 9 2014 15:16:27
Writing library : libebml v1.3.0 + libmatroska v1.4.1


Video
ID : 1
Format : AVC
Format/Info : Advanced Video Codec
Format profile : [email protected]
Format settings, CABAC : Yes
Format settings, ReFrames : 4 frames
Codec ID : V_MPEG4/ISO/AVC
Duration : 1h 37mn
Bit rate : 1 001 Kbps
Width : 1 280 pixels
Height : 536 pixels
Display aspect ratio : 2.40:1
Frame rate mode : Constant
Frame rate : 25.000 fps
Color space : YUV
Chroma subsampling : 4:2:0
Bit depth : 8 bits
Scan type : Progressive
Bits/(Pixel*Frame) : 0.058
Stream size : 681 MiB (87%)
Title : Mafiaking
Language : Hindi
Default : Yes
Forced : No


Audio
ID : 2
Format : AC-3
Format/Info : Audio Coding 3
Mode extension : CM (complete main)
Format settings, Endianness : Big
Codec ID : A_AC3
Duration : 1h 37mn
Bit rate mode : Constant
Bit rate : 128 Kbps
Channel(s) : 2 channels
Channel positions : Front: L R
Sampling rate : 44.1 KHz
Bit depth : 16 bits
Compression mode : Lossy
Stream size : 88.9 MiB (11%)
Title : Mafiaking
Language : Hindi
Default : Yes
Forced : No




[font=\"Times New Roman\"]
SAMPLE WITH IN TORRENT[/font]


screenshots-icon.png

OFqJTKg.jpg

rxSDYnJ.jpg

RBRgPpr.jpg

2VLIWeT.jpg

iLsYDwP.jpg

fIAiXdq.jpg

UtqCoW4.jpg

eky9QDE.jpg

Cye8s5i.jpg

FBeuHKb.jpg

AwiM5Vi.jpg

r9to8vS.jpg

hv9Wc8K.jpg

4CWDcZo.jpg

PNFhQaX.jpg

wRAzjMS.jpg

mn5mo6k.jpg

[font=\"Times New Roman\"]Respects To ::- SaM,oziman, And All The Staff\'s Of Extratorrent!!![/font]

Torrent Description

Movie
Mumbai 125 KM 3D
Detected quality
720p
Genre
Horror
Language
Hindi
Title
Mumbai 125 KM (2014) - 720p - WebHD-Rip - Hindi - x264 - AC3 - Mafiaking - Team TellyTNT
UpNum
+104
DownNum
-10
Category
Movies > Bollywood
image


image


image





Ratings: 5.3/10

GENRE: Horror


General
Unique ID : 219802070588085335006572542407605633423 (0xA55C56C5FA24415E801AAF4A5CE6418F)
Complete name : Mumbai 125 KM (2014) - 720p - WebHD-Rip - Hindi - x264 - AC3 - Mafiaking - Team TellyTNT.mkv
Format : Matroska
Format version : Version 4 / Version 2
File size : 785 MiB
Duration : 1h 37mn
Overall bit rate : 1 131 Kbps
Movie name : Mumbai 125 KM (2014) - 720p - WebHD-Rip - Hindi - x264 - AC3 - Mafiaking - Team TellyTNT
Encoded date : UTC 2014-12-10 13:03:16
Writing application : mkvmerge v7.0.0 ('Where We Going') 64bit built on Jun 9 2014 15:16:27
Writing library : libebml v1.3.0 + libmatroska v1.4.1


Video
ID : 1
Format : AVC
Format/Info : Advanced Video Codec
Format profile : [email protected]
Format settings, CABAC : Yes
Format settings, ReFrames : 4 frames
Codec ID : V_MPEG4/ISO/AVC
Duration : 1h 37mn
Bit rate : 1 001 Kbps
Width : 1 280 pixels
Height : 536 pixels
Display aspect ratio : 2.40:1
Frame rate mode : Constant
Frame rate : 25.000 fps
Color space : YUV
Chroma subsampling : 4:2:0
Bit depth : 8 bits
Scan type : Progressive
Bits/(Pixel*Frame) : 0.058
Stream size : 681 MiB (87%)
Title : Mafiaking
Language : Hindi
Default : Yes
Forced : No


Audio
ID : 2
Format : AC-3
Format/Info : Audio Coding 3
Mode extension : CM (complete main)
Format settings, Endianness : Big
Codec ID : A_AC3
Duration : 1h 37mn
Bit rate mode : Constant
Bit rate : 128 Kbps
Channel(s) : 2 channels
Channel positions : Front: L R
Sampling rate : 44.1 KHz
Bit depth : 16 bits
Compression mode : Lossy
Stream size : 88.9 MiB (11%)
Title : Mafiaking
Language : Hindi
Default : Yes
Forced : No


SAMPLE WITH IN TORRENT




image

image

image

image

image

image

image

image

image

image

image

image

image

image

image

image

image

image

Comments

  • Rick1408 at 2014-12-10 13:59:47 wrote:
    Worst possible remake of Dead End... But thnx for the upload ...
  • 0097 at 2014-12-10 14:11:51 wrote:
    Always wait for your uploads....Thanxxx
  • wample at 2014-12-10 15:32:03 wrote:
    good one
  • leahg at 2014-12-10 19:14:06 wrote:
    How about an English dub or subtitles for this, thanks
  • Cool_Release at 2014-12-11 02:21:07 wrote:
    nice one
  • akash_jee at 2014-12-11 05:06:08 wrote:
    thanks for share
  • kun4l at 2014-12-11 09:21:12 wrote:
    thanks mafia
  • bhuttojoji at 2014-12-12 12:29:16 wrote:
    how about time that you added this movie in HD or bluRay.