飞鸟娱乐(bbs.hdbird.com).红字.720P.韩语中字£子凡

Torrent Base Info

Title:
飞鸟娱乐(bbs.hdbird.com).红字.720P.韩语中字£子凡
Total size:
2.18 GB
Create Time:
2010-05-27 03:32:52
Total Files:
11

Guess You Like

Files in this torrent

  • 飞鸟娱乐(bbs.hdbird.com).红字.720P.韩语中字£子凡.torrent
  • 飞鸟娱乐(bbs.hdbird.com).红字.720P.韩语中字£子凡
    • 小浪影视.url (270 B)
    • 弹弹堂-远征的召唤.url (317 B)
    • 德克萨斯扑克游戏.url (272 B)
    • 红字 The Scarlet Letter.2004.BluRay.720p.x264.AC3-HDiY.jpg (171 KB)
    • 红字 The Scarlet Letter.2004.BluRay.720p.x264.AC3-HDiY.mkv (2.18 GB)
    • 红字.jpg (78.9 KB)
    • 红字.txt (4.52 KB)
    • [email protected] (1.06 KB)
    • 飞鸟娱乐主页.htm (5.99 KB)
    • 飞鸟娱乐网址更新器.rar (122 KB)
    • 飞鸟娱乐高清电影.url (272 B)

Torrent Recommendation

5.42 MB
2015-11-28 00:24:30
700 MB
2015-11-30 22:36:19
1.48 GB
2015-11-27 07:31:08
1.56 GB
2015-11-27 17:03:37
77.2 MB
2015-11-30 21:44:02
702 MB
2015-11-30 08:11:45
1.37 GB
2015-11-27 16:40:29
2.22 GB
2015-11-28 02:34:39
99.5 MB
2015-12-01 02:44:53
1.4 GB
2015-11-30 02:06:15
2.05 GB
2013-09-05 10:54:28
1.61 GB
2015-12-01 21:21:08
2 GB
2015-11-28 01:06:11
279 MB
2015-11-29 00:19:43
549 MB
2015-11-30 15:35:06
1.29 GB
2015-11-30 18:28:07
983 MB
2015-12-01 05:57:05
745 MB
2015-12-01 15:35:50
199 MB
2015-12-02 07:50:16
1.4 GB
2015-11-30 15:22:05

Torrent Description

Names
The Scarlet Letter/红字
Caption
【HDiY工作组】红字 The Scarlet Letter.2004.BluRay.720p.x264.AC3-HDiY 韩语中字
Year
2004
Nation
韩国
Category
剧情、神秘、惊悚
Language
韩语
Video Size
1280x720【编码格式】:x264+
Director
边赫 Hyuk Byun
Starring
韩石圭 Suk-Kyu Han ... Ki-hoon/李恩珠 Eun-Joo Lee ... Ga-hee/Hyeon-a Seong ... Kyeong-hie/Ji-won Uhm ... Su-hyeon/※※※※※※※ 资料信息 ※※※※※※※
女人看见了树上的禁果,它们看起来是那么赏心悦目,吃了便能增长智慧。她不禁采了一些,也给了自己的丈夫一份,男人便也吃了它…… 绮勋(韩石圭 饰)是一名出色的刑警,他的生活可以说是春风得意。他有很好的前程,还有两个深爱着他的女人,一个是端庄优雅、温柔贤惠的妻子秀贤(严智媛 饰),一个是充满着诱惑力的情妇佳喜(李恩珠 饰)。有一天,他接到任务调查照相馆主人被杀的案件。死者的妻子庆熙(成贤娥 饰)有杀人的嫌疑,然而这个女人却散发着一种奇特的、颓废的魅力,让他觉得深不可测。绮勋很快陷入了对庆熙的痴迷当中。 此时,绮勋的生活出现了一些波澜。妻子秀贤怀孕了,绮勋想和情妇佳喜一刀两断,却发现自己根本无法自拔。佳喜虽然表面上华丽无比,内心却异常孤独,将绮勋的爱当作唯一的生活支柱,当绮勋提出分手时,立刻陷入了绝望和痛苦之中。而秀贤,似乎没有觉察到自己身边发生的一切,坚守着心中的秘密。 在妻子秀贤面前,绮勋是亲切的丈夫,在执行公务时,是强硬甚至带些残忍的警察,在情妇佳喜面前,他是热情似火的情人,在嫌疑犯庆熙面前,又是个暧昧的男人。然而当三名女子的秘密一个一个地揭开,眼前的真相却让人目瞪口呆。 ※※※※※※※ 参数信息 ※※※※※※※ D:\[HDiY工作组]MKV高清收藏资源\飞鸟娱乐(bbs.hdbird.com).红字.720P.韩语中字£子凡\红字 The Scarlet Letter.2004.BluRay.720p.x264.AC3-HDiY.mkv General Complete name : D:\[HDiY工作组]MKV高清收藏资源\飞鸟娱乐(bbs.hdbird.com).红字.720P.韩语中字£子凡\红字 The Scarlet Letter.2004.BluRay.720p.x264.AC3-HDiY.mkv Format : Matroska File size : 2.18 GiB Duration : 1h 58mn Overall bit rate : 2 634 Kbps Movie name : Encoded By HDiY Team Encoded date : UTC 2010-05-27 02:51:34 Writing application : mkvmerge v3.4.0 ('Rapunzel') 编译于 May 15 2010 09:38:20 Writing library : libebml v0.8.0 + libmatroska v0.9.0 Video #1 ID : 1 Format : AVC Format/Info : Advanced Video Codec Format profile : [email protected] Format settings, CABAC : Yes Format settings, ReFrames : 6 frames Muxing mode : Container [email protected] Codec ID : V_MPEG4/ISO/AVC Duration : 1h 58mn Bit rate : 2 133 Kbps Nominal bit rate : 2 184 Kbps Width : 1 280 pixels Height : 720 pixels Display aspect ratio : 16:9 Frame rate : 24.000 fps Resolution : 8 bits Colorimetry : 4:2:0 Scan type : Progressive Bits/(Pixel*Frame) : 0.096 Stream size : 1.77 GiB (81%) Title : [email protected] Writing library : x264 core 80 r1376M 3feaec2 Encoding settings : cabac=1 / ref=6 / deblock=1:0:0 / analyse=0x3:0x133 / me=umh / subme=6 / psy=1 / psy_rd=1.0:0.0 / mixed_ref=0 / me_range=24 / chroma_me=1 / trellis=2 / 8x8dct=1 / cqm=1 / deadzone=21,11 / fast_pskip=0 / chroma_qp_offset=-2 / threads=6 / sliced_threads=0 / nr=0 / decimate=0 / mbaff=0 / constrained_intra=0 / bframes=6 / b_pyramid=2 / b_adapt=2 / b_bias=4 / direct=2 / wpredb=1 / wpredp=2 / keyint=250 / keyint_min=25 / scenecut=40 / rc_lookahead=40 / rc=2pass / mbtree=1 / bitrate=2184 / ratetol=0.5 / qcomp=0.60 / qpmin=10 / qpmax=51 / qpstep=4 / cplxblur=20.0 / qblur=0.5 / ip_ratio=1.40 / aq=1:1.00 Language : Korean Audio #2 ID : 2 Format : AC-3 Format/Info : Audio Coding 3 Codec ID : A_AC3 Duration : 1h 58mn Bit rate mode : Constant Bit rate : 448 Kbps Channel(s) : 6 channels Channel positions : Front: L C R, Surround: L R, LFE Sampling rate : 48.0 KHz Stream size : 380 MiB (17%) Title : Korean Language : Korean Text #3 ID : 3 Format : ASS Codec ID : S_TEXT/ASS Codec ID/Info : Advanced Sub Station Alpha Title : Chinese Simplified Language : Chinese ※※※※※※※ 截图信息 ※※※※※※※