The.Transporter.4.Refueled.2015.HDCam.x264.New.Source-rDX.mkv

Torrent Base Info

Title:
The.Transporter.4.Refueled.2015.HDCam.x264.New.Source-rDX.mkv
Total size:
698 MB
Create Time:
2015-11-29 21:38:09
Total Files:
1

Guess You Like

Files in this torrent

  • The.Transporter.4.Refueled.2015.HDCam.x264.New.Source-rDX.mkv.torrent
  • The.Transporter.4.Refueled.2015.HDCam.x264.New.Source-rDX.mkv (698 MB)

Torrent Recommendation

1.95 GB
2016-08-31 05:33:23
1.31 GB
2015-06-02 14:33:40
1.41 GB
2016-02-03 14:35:40
1.24 GB
2016-09-21 21:54:44
4.57 GB
2015-05-14 10:09:45
1.06 GB
2016-11-06 13:14:29
4.26 GB
2017-06-25 03:09:03
1.5 GB
2017-03-13 17:57:19
454 MB
2008-11-05 04:57:48
751 MB
2016-06-26 10:13:42
1.44 GB
2014-06-10 02:05:46
3.95 GB
2016-07-15 09:03:05
2.95 GB
2017-02-22 22:36:53
428 MB
2008-12-05 13:19:54
1.25 GB
2015-02-07 17:46:29
3.82 GB
2017-02-20 23:10:20
2.29 GB
2016-12-02 07:10:22
3.05 GB
2017-02-01 16:10:57
1.43 GB
2016-06-05 03:17:45
2.83 GB
2017-01-13 11:19:39

Torrent Description

Info hash
A1FFCE67F1550FFC7ACB12AC6F841214C042E1A5
Category
Categories > Movies torrents > Action torrents
Seeds
453
Leechers
21
Health
Torrent language
English
Total Size
698.13 MB
Torrent added
2015-09-11 00:37:57 | Last edit: 2015-09-11 00:38:29 by bone111

Torrent Description

Category
Video > Movies
Files
1
Size
698.13 MiB (732045441 Bytes)
Spoken language(s)
English
Uploaded
2015-09-11 02:23:57 GMT
By
.BONE.
Seeders
102
Leechers
17
Comments
1
Info Hash
A1FFCE67F1550FFC7ACB12AC6F841214C042E1A5
The.Transporter.4.Refueled.2015.HDCam.x264.New.Source-rDX
Release Date: Septmber 09, 2015
Filename: The.Transporter.4.Refueled.2015.HDCam.x264.New.Source-rDX
Source: HDCAM
Size: 698 MB
Genre: Action, Crime, Thriller
Video: MKV | 640?288 | 903 Kbps
Audio: English | MP3 | 160 Kbps
Subs: N/A
IMDB Rating: 4.7/10 from 2,826 users
RT Critics: 3.8/10
Directed By: Camille Delamarre
Starring: Ed Skrein, Loan Chabanol, Ray Stevenson

http://www.imdb.com/title/tt2938956/

Release Description
In the south of France, former special-ops mercenary Frank Martin enters into a game of chess with a femme-fatale and her three sidekicks who are looking for revenge against a sinister Russian kingpin.

http://i.imgur.com/Mlcxx3m.png 
http://i.imgur.com/TLw2tQ8.png 
http://i.imgur.com/j4DwyfE.png 
http://i.imgur.com/qPY8zsd.png 
http://i.imgur.com/u6c8JRP.png 
http://i.imgur.com/5VbZqqx.png 
http://i.imgur.com/Wzq7VtU.png 
http://i.imgur.com/qYT4itF.png 
http://i.imgur.com/vl7atyN.png 
http://i.imgur.com/ajJU8FZ.png

Comments

  • bone111 at 2015-09-11 01:21:15 wrote:
    rDX puts new Source at end of every upload so it's probably the same as rest just polished different
  • SaM at 2015-09-11 14:01:45 wrote:
    yes its the same source UNKNOWN
  • hereissakun at 2015-09-11 15:41:31 wrote:
    Thank you so much..great share (:
  • mislabel at 2015-09-18 08:40 wrote:
    **THIS MKV NOT x264 ENCODED** Format settings, QPel : No Format settings, GMC : No warppoints Format settings, Matrix : Default (H.263) Codec ID : V_MS/VFW/FOURCC / DX50 Codec ID/Hint : DivX 5 Duration : 1h 29mn Bit rate : 903 Kbps Width : 640 pixels Height : 288 pixels Display aspect ratio : 2.222 Frame rate mode : Constant Frame rate : 25.000 fps Color space : YUV Chroma subsampling : 4:2:0 Bit depth : 8 bits Scan type : Interlaced Scan order : Top Field First Compression mode : Lossy Bits/(Pixel*Frame) : 0.196 Stream size : 581 MiB (83%) Title : ~ rDX ~ Writing library : Lavc52.30.1 Default : Yes Forced : No Audio ID : 2 Format : MPEG Audio Format version : Version 1 Format profile : Layer 3 Mode : Joint stereo Mode extension : MS Stereo Codec ID : A_MPEG/L3 Codec ID/Hint : MP3 Duration : 1h 29mn Bit rate mode : Constant Bit rate : 160 Kbps Channel(s) : 2 channels Sampling rate : 44.1 KHz Compression mode : Lossy Stream size : 103 MiB (15%) Title : ~ rDX ~ Default : Yes Forced : No